You must be logged in to view this content.
Mediainfo

General

Complete name : 220114 KBS UHD Music Bank UP10TION – Crazy About You.mp4
Format : MPEG-4
Format profile : Base Media
Codec ID : isom (isom/iso2/mp41)
File size : 1.32 GiB
Duration : 4 min 16 s
Overall bit rate : 44.4 Mb/s
Encoded date : UTC 1904-01-01 00:00:00
Tagged date : UTC 1904-01-01 00:00:00
Writing application : Lavf58.27.103

Video

ID : 1
Format : HEVC
Format/Info : High Efficiency Video Coding
Format profile : Main@L5.2@High
Codec ID : hev1
Codec ID/Info : High Efficiency Video Coding
Duration : 4 min 15 s
Bit rate : 44.0 Mb/s
Width : 3 840 pixels
Height : 2 160 pixels
Display aspect ratio : 16:9
Frame rate mode : Constant
Frame rate : 60.000 FPS
Color space : YUV
Chroma subsampling : 4:2:0
Bit depth : 8 bits
Bits/(Pixel*Frame) : 0.089
Stream size : 1.31 GiB (99%)
Encoded date : UTC 1904-01-01 00:00:00
Tagged date : UTC 1904-01-01 00:00:00
Color range : Limited
Color primaries : BT.709
Transfer characteristics : BT.709
Matrix coefficients : BT.709

Audio

ID : 2
Format : AAC
Format/Info : Advanced Audio Codec
Format profile : LC
Codec ID : 40
Duration : 4 min 16 s
Bit rate mode : Constant
Bit rate : 384 kb/s
Channel(s) : 2 channels
Channel positions : Front: L R
Sampling rate : 48.0 kHz
Frame rate : 46.875 FPS (1024 spf)
Compression mode : Lossy
Stream size : 11.8 MiB (1%)
Default : Yes
Alternate group : 1
Encoded date : UTC 1904-01-01 00:00:00
Tagged date : UTC 1904-01-01 00:00:00

Go to Source
Author: 4sashi

By admin